#TITLE:Bad Boy Bass!!;
#SUBTITLE:(dj Remo-com Mix);
#ARTIST:Y&Co;
#TITLETRANSLIT:;
#SUBTITLETRANSLIT:;
#ARTISTTRANSLIT:;
#CREDIT:;
#BANNER:badboybass banner.jpg;
#BACKGROUND:badboybass_bg.jpg;
#LYRICSPATH:;
#CDTITLE:b00geyman cd.jpg;
#MUSIC:04 - BAD BOY BASS!! (dj Remo-com MIX).mp3;
#OFFSET:-0.420;
#SAMPLESTART:79.202;
#SAMPLELENGTH:12.000;
#SELECTABLE:YES;
#BPMS:0.000=148.000;
#STOPS:;
#BGCHANGES:;
// cache tags:
#FIRSTBEAT:0.000;
#LASTBEAT:295.500;
#SONGFILENAME:Songs/nhac/BAD BOY BASS/BadBoyBass.sm;
#HASMUSIC:1;
#HASBANNER:1;
#MUSICLENGTH:123.480;
// end cache tags

//---------------dance-single - Hard----------------
#NOTES:
     dance-single:
     Hard:
     Hard:
     9:
     0.686,0.718,0.575,0.081,0.146,512.000,71.000,10.000,0.000,0.000:

0000
0000
0000
0000
,
1000
1000
0001
0100
0100
0001
0101
0000
,
0001
0000
1000
0000
0001
0100
0001
0000
,
0001
0001
1000
0100
0100
1000
1100
0000
,
0100
0000
1000
0000
0001
0010
0010
0000
,
0001
0001
0010
0100
1000
1000
1001
0000
,
1000
0000
0100
0010
0001
0000
1000
0000
,
0010
0010
1000
0001
0001
0100
0110
0000
,
0101
0000
0001
0100
0010
0000
1010
0000
,
1000
1000
0010
1000
1000
0100
1000
0000
,
0001
0001
0010
0001
0001
0100
0001
0000
,
1000
0001
0100
0001
1000
1000
1000
0000
,
0010
0001
0100
0010
0100
0100
0100
0000
,
1000
0100
0010
0001
0100
0001
0001
0000
,
0001
0010
0100
0001
0100
1000
1000
0000
,
0100
0100
0010
1000
0010
0001
0001
0000
,
0010
0001
0100
1000
0100
0100
0100
0000
,
1000
0000
0001
0000
0010
0100
0010
0000
0001
0000
1000
0000
0100
0010
0100
0000
,
1000
0000
0001
0000
0100
0010
0100
0000
0001
0000
1000
0000
0010
0100
0010
0000
,
1000
0000
0001
0000
0100
0010
0100
0000
0001
0000
1000
0000
0100
0010
0100
0000
,
1000
1000
0100
1000
0010
0010
1001
0100
,
0001
0200
0000
0300
0000
1000
0100
0010
,
1000
0010
0200
0000
0300
0100
0010
0001
,
0010
1000
0020
0000
0030
1000
0100
0001
,
0100
0001
0100
1000
0010
0001
1000
0100
,
0100
0000
0100
0000
0001
0000
0000
0011
0000
0000
1100
0000
0000
0000
0000
0000
,
0102
0000
0003
0010
0001
1000
0001
0100
,
1000
0000
1000
0000
1000
0000
0000
0101
0000
0000
1001
0000
0000
0000
0000
0000
,
0120
0000
0030
1000
0100
0010
1000
0010
,
0001
0000
0001
0000
0001
0000
0000
1001
0000
0000
1100
0000
0000
0000
0000
0000
,
0021
0000
0030
0001
0100
1000
0100
0001
,
0100
0000
0100
0000
0100
0000
0000
0101
0000
0000
0110
0000
0000
0000
0000
0000
,
0010
1000
0001
0100
0010
0100
0110
0000
,
1000
0000
0100
0000
0010
0000
0000
0011
0000
0000
1001
0000
0000
0000
0000
0000
,
0010
1000
0001
0010
0100
0010
0110
0000
,
0001
0000
0010
0000
0100
0000
0000
1100
0000
0000
1001
0000
0000
0000
0000
0000
,
1000
0100
0010
1000
0010
0010
0110
0000
,
0001
0000
1000
0000
0001
0000
0000
1001
0000
0000
1100
0000
0000
0000
0000
0000
,
0001
0100
0010
0001
0010
0100
0110
0000
,
1000
0000
0001
0000
1000
0000
0000
0101
0000
0000
1001
0000
0000
0000
0000
0000
,
1000
1000
0001
0010
0100
1000
0100
0010
,
1001
0100
1000
0000
0001
1000
1001
0000
,
0010
0100
0110
0000
1000
0100
0011
0000
,
0001
0010
1100
0000
0100
0010
1001
0000
,
0010
0100
1001
0000
0001
0010
0011
0000
,
0001
0010
1000
0010
0001
0010
1000
0010
,
0001
0100
1000
0100
0001
0100
1000
0100
,
0010
0010
0010
0010
0010
0010
0010
0010
,
2002
0000
0000
3003
,
0010
0100
1001
0100
0010
0001
0011
0001
,
1000
0000
0100
0000
1100
0000
0000
0010
0100
0010
0100
0010
0100
0000
0000
0000
,
1000
0100
1100
0010
0001
0010
0011
0001
,
1000
0000
0100
0000
1001
0000
0000
0100
1000
0100
1000
0100
1000
0000
0000
0000
,
0010
0001
0110
1000
0010
0100
0101
0001
,
1000
0000
0010
0000
1001
0000
0000
0100
0010
0100
0010
0100
0010
0000
0000
0000
,
1000
0010
0100
0001
0010
1000
0010
0001
,
0100
1000
0100
0010
1000
0100
0010
0000
,
1001
0100
1001
1000
0001
0100
0001
0001
,
0011
1000
0011
0001
1000
0001
0100
0100
,
0110
0010
1001
1000
0100
0010
0001
0001
,
0011
0100
1001
0001
0010
0100
1000
1000
,
0101
0001
0110
1000
0010
0100
0001
0001
,
1010
0100
1001
0001
0100
0010
1000
1000
,
1001
0100
0011
0010
0001
0001
0001
0000
,
1001
0100
1010
0100
1000
1000
1000
0000
,
0001
0000
1000
0000
0100
0000
1000
0100
0010
0000
0100
0000
1001
0000
0000
0000
,
1000
0000
0001
0000
0100
0000
0001
1000
0001
0000
0100
0000
0110
0000
0000
0000
,
1000
0000
0100
0000
0001
0000
0100
1000
0100
0000
1000
0000
1001
0000
0000
0000
,
1001
0000
1000
0000
0100
0000
0001
0100
0010
0000
0001
0000
0001
0000
0000
0000
,
1001
0000
0001
0000
0100
0000
0010
1000
0100
0000
0010
0001
0100
0000
0100
0000
,
0011
0000
0001
0000
1000
0000
0010
1000
0100
0000
0010
0001
0100
0000
0100
0000
,
1000
0100
1000
0000
0001
0010
0001
0000
0100
0010
0100
0000
0001
1000
0001
0000
,
0100
0000
0100
0000
0100
0000
0100
0000
0100
0000
0100
0000
0001
1000
0001
0000
,
2002
0000
0000
0000
0000
0000
0000
3003
;

//---------------dance-single - ----------------
#NOTES:
     dance-single:
     :
     Challenge:
     1:
     1.000,1.000,0.640,1.000,1.000,1830.000,79.000,224.000,0.000,1.000:
1000
0100
0010
0001
1000
0100
0010
0001
0010
0100
1000
0001
0010
0100
1000
0001
1000
0100
0010
0001
1000
0100
0001
1000
,
1001
1000
0100
0010
0001
0010
0100
1000
0001
0100
0010
1000
0001
0100
0010
1000
,
0101
0001
0011
0010
0110
0100
1100
0100
,
0110
1000
0100
0010
0001
0010
0100
1000
0001
0100
1000
0001
1001
0000
1100
0000
,
0100
0000
0110
0000
0010
0000
0011
0000
0001
0000
1001
0000
0110
1000
0100
0010
,
0001
0010
0100
1000
0001
1000
0100
0010
0001
1000
0100
0010
0001
0000
1100
0000
,
0110
0000
0011
0000
0110
0000
1100
0000
1001
0000
0110
0000
1001
0000
1000
0100
,
0010
0001
1000
0100
0010
0001
2000
3100
0010
0002
2003
3100
0011
0000
0001
0000
,
0101
0000
0100
0000
0110
0000
0010
0000
1010
0000
1000
0000
1001
0000
1000
0100
,
0010
0001
1000
0100
0010
0001
0010
0100
1000
0002
0013
0100
1000
0000
1000
0100
,
0020
0031
1000
0200
0310
0001
1000
0100
0010
0001
1000
0200
0310
0000
0001
0010
,
0100
1000
1000
0100
0010
0001
0001
0010
0100
1000
1000
0100
0010
0000
1000
0100
,
0010
0000
0001
0010
0100
1000
0001
0010
0100
1000
0100
0010
0001
0000
0010
0100
,
0002
1003
0100
0010
0001
1000
0100
0010
1000
0001
1000
0100
0010
0000
0001
2000
,
3100
0010
0001
1000
0100
0010
1000
0001
0100
1000
0001
1000
0100
0000
0001
1000
,
0100
0010
1000
0100
0001
1000
0010
0001
1000
0100
0001
1000
0100
0000
0001
0010
,
0100
1000
0002
1003
0200
0310
0001
1000
0100
0010
1000
0001
0100
0000
0010
0000
,
1000
0100
0010
0001
0010
0100
1000
0000
0100
0010
0001
1000
0100
0010
0001
1000
,
0000
0100
0010
0001
1000
0100
0010
0001
1000
0000
0100
0010
0001
1000
0100
0010
,
0001
0000
1000
0100
0010
0001
1000
0100
0010
0001
0000
0010
0100
0001
1000
0100
,
0010
0001
1000
0000
0010
0001
0100
1000
0010
0001
1000
0100
0010
0000
0001
0010
,
0100
1000
0001
0010
0100
1000
0000
1000
0100
0010
0002
2003
3100
0010
0001
0000
,
0010
0100
0002
1003
0010
0200
0301
1000
0000
0100
0010
1000
0001
0100
0010
1000
,
0001
0000
0010
0001
1000
0010
1000
0001
0010
0001
0000
1000
0100
0010
0001
1000
,
0100
0010
0001
0000
0001
0010
0100
1000
0001
0010
0100
1000
0000
0100
0010
0001
,
2000
3200
0310
0001
0010
0000
0001
1000
0200
0320
0031
1000
0100
0010
0000
0001
,
0010
0100
1000
0001
1000
0100
0010
0001
0000
0010
0100
1000
0001
0010
0200
1300
,
0001
0000
0100
0010
0001
1000
0100
0010
0001
1000
0000
0010
0001
1000
0100
0020
,
0031
1000
0001
0000
1100
0000
0011
0000
1100
0000
0101
0000
0011
0000
1100
0000
,
1010
0101
0011
1100
1010
0101
0011
1100
,
0110
1001
1100
0101
0011
1100
1010
0101
,
0011
1100
1001
0110
1100
0011
1100
0011
,
1100
1010
0101
1010
0101
1010
0101
1010
,
0101
0000
0000
0000
1100
0000
0011
0000
1100
0000
0011
0000
0000
0110
0000
0000
,
1100
0000
0000
0000
0110
0000
0000
0000
1001
0000
0000
0000
0000
0000
0000
0000
1000
0100
1000
0010
0001
1000
0100
0010
1000
0001
0010
0100
1000
0100
0010
0002
,
1003
0100
0010
0001
0010
0100
1000
0001
0020
0230
1300
0001
0100
0010
1000
0001
0100
0010
0001
1000
0010
0100
0001
1000
0020
0130
1000
0100
0010
0001
1000
0100
,
0010
0001
0010
0100
1000
0001
0010
0100
1000
0001
1000
0001
1000
0001
1000
0001
1000
0100
0010
0100
0010
0100
0010
0100
0010
0100
0001
1000
0100
0010
0001
0010
,
0100
1000
0001
1000
0001
0100
0010
0001
1000
0100
0020
0031
1000
0100
0010
0001
0010
0100
1000
0001
0020
0130
1000
0001
0010
0100
1000
0001
0010
0100
1000
0100
,
0010
0001
1000
0100
0010
0001
1000
0100
0010
0001
0010
0100
1000
0001
0010
0100
2000
3001
0010
0200
2300
3100
0010
0001
1000
0100
0010
0002
1003
0100
0020
0031
,
0010
0100
1000
0001
0010
0100
1000
0002
0013
0100
1000
0001
0100
0010
1000
0001
0100
0010
0001
1000
0010
0100
0001
1000
0010
0100
1000
0100
0010
0001
1000
0100
,
0010
0001
0010
0100
1000
0001
0010
0100
1000
0002
1003
0001
1000
0001
1000
0100
2000
3200
0310
0100
0010
0001
0010
0001
0100
0001
0100
0010
0100
0010
1000
0010
,
1000
0001
1000
0001
0100
0001
0100
0010
0100
0010
1000
0010
1000
0001
1000
0002
0103
0010
1000
0001
0100
0010
1000
0001
0100
0010
1000
0002
0103
0010
1000
0001
,
0100
0010
1000
0001
0100
0010
1000
0001
0100
1000
0010
0001
0100
1000
0010
0001
1000
0010
0100
0001
1000
0100
0010
0001
0010
0200
1300
0001
0010
0100
1000
0010
,
0001
1000
0100
0010
0001
1000
0100
0010
0001
1000
0100
0010
0001
1000
0100
0010
0001
1000
0100
0010
0001
0010
0100
1000
0001
0010
0100
1000
0001
0010
0100
2000
,
3001
0010
0100
1000
0001
0010
0200
1300
0100
0010
0001
1000
0200
0310
0001
0010
1000
0100
0010
1000
0010
0001
1000
0200
0310
0001
1000
0010
0100
0001
1000
0020
,
0130
0010
0001
1000
0100
0010
0001
1000
0100
0010
0001
1000
0001
0100
0010
1000
0001
0100
0010
0001
2000
3010
0100
0001
1000
0100
0010
0001
1000
0100
0010
0001
1000
0100
0010
0100
1000
0001
0010
0100
0002
1003
0100
0010
0001
1000
0100
0010
,
0001
0010
0100
1000
0001
1000
0100
0010
0001
0010
0100
1000
0001
1000
0100
0010
0001
0010
0100
1000
0100
0010
0001
1000
0100
0010
0001
0010
0100
0001
1000
0100
0010
0001
0100
1000
0100
0010
0001
0010
1000
0100
0010
0001
1000
0100
0010
1000
,
0001
1000
0100
0010
0001
1000
0100
0020
0032
2003
3200
0320
0031
0010
0100
1002
2003
3200
0310
0001
1000
0100
0010
0001
0010
0200
2300
3002
0023
0230
2300
3002
0013
0100
1000
0001
0010
0200
2300
3001
0010
0100
1000
0001
1000
0100
0010
0001
0010
0100
1000
0001
0010
0100
2000
3200
0320
0032
2003
3100
0010
0001
1000
0100
,
0020
0000
0000
0000
,
0030
1000
0100
1000
0100
1000
0100
1000
0100
1000
0100
1000
0100
1000
0100
0000
0000
0000
0010
0001
0010
0001
0010
0001
0010
0001
0010
0001
0010
0001
0010
0001
,
0000
0000
1000
0000
0100
0000
0010
0000
0001
0000
0010
0000
0100
0000
1000
0000
0100
0000
0010
0000
0001
0000
0010
0000
0100
0000
1000
0000
0100
0000
0000
0000
0001
0010
0100
1000
0100
0010
0001
0010
0100
1000
0100
0010
0001
0010
0100
1000
0100
0010
0001
0010
0100
1000
0100
0010
0001
0010
0100
1000
0000
0000
0000
0000
,
1000
0100
0010
0001
1000
0100
0010
0001
0010
0100
1000
0100
0010
0001
0000
0000
0000
0001
0010
0100
1000
0001
0010
0100
1000
0100
0010
0001
0020
0130
1000
0000
,
0100
0000
0010
0000
0001
0000
1000
0000
0100
0000
0010
0000
0001
0000
1000
0000
0100
0000
0010
0000
0001
0000
0010
0000
0100
0000
1000
0000
0000
0000
0000
0000
1000
0100
0010
0001
0010
0100
1000
0100
0010
0001
0010
0100
1000
0100
0010
0001
0010
0100
1000
0001
0010
0100
1000
0001
0100
0010
1000
0001
0000
0000
0000
0000
,
1000
0001
0010
0100
1000
0100
0010
0001
0010
0100
1000
0001
0010
0100
0000
0000
1000
0100
0010
0001
0010
0100
1000
0100
0010
1000
0100
0010
0001
0100
0000
0000
,
1000
0000
0100
0000
0010
0000
0001
0000
1000
0000
0100
0000
0010
0000
0001
0000
0010
0000
0100
0000
0001
0000
0010
0000
0100
0000
1000
0000
0000
0000
0000
0000
0000
1000
0100
0010
0001
1000
0100
0010
0001
0010
0100
1000
0001
0010
0100
1000
0100
0010
0001
0010
0100
1000
0001
0010
0100
0000
1000
0100
0010
0001
1000
0001
,
0100
1000
0100
0010
0001
1000
0100
0010
0001
1000
0100
0010
0001
1000
0100
0000
0001
0010
0100
1000
0001
0010
0100
1000
0001
0010
0100
1000
0001
0010
0000
0000
,
1000
0000
0100
0000
0010
0000
0001
0000
1000
0000
0010
0000
0100
0000
0001
0000
1000
0000
0010
0000
0100
0000
0001
0000
1000
0000
0001
0000
0010
0000
0000
0000
0000
1000
0100
0010
0001
1000
0100
0010
0001
0010
0100
1000
0001
0020
0130
1000
0100
0010
0001
0010
0100
1000
0001
0010
0100
1000
0100
0010
0001
1000
0000
0000
,
1000
0100
0010
0001
0010
0200
2300
3002
0023
0230
2300
3000
0000
0010
0200
2300
3002
0003
2000
3000
0020
0030
0000
1000
0100
0002
0003
2000
3020
0230
0300
0001
,
0020
0230
2300
3002
0003
0000
0000
1000
2000
3200
0320
0032
0003
0000
0100
0020
0032
0023
0030
2000
3000
0000
0001
0010
0100
2000
3100
0002
0023
0030
0000
1000
,
0200
0310
0002
2003
3100
0020
0031
0010
0100
1000
0001
0010
0200
2300
3001
0010
0100
2000
3001
0010
0100
1000
0001
1000
0100
0010
0002
1003
0200
0310
0001
0010
,
0100
0001
1000
0001
0010
0100
1000
0001
0010
0100
1000
0100
0010
0001
1000
0100
0010
0001
0100
0010
1000
0001
0100
0010
0001
1000
0100
0010
0001
1000
0100
0010
,
0001
0010
0100
1000
0001
0200
0310
0002
2003
3200
0320
0032
0003
1000
0100
0010
0001
0010
0100
1000
0002
0013
0100
2000
3002
0023
0230
0300
1002
0003
0020
0030
,
0100
2000
3000
0000
0100
0002
2203
3300
0000
0010
0100
2000
3001
0010
0200
2300
3001
0010
0100
1000
0001
0020
0230
1300
0100
0020
0032
1003
0200
0310
0001
1000
,
0100
0020
0032
1003
0200
0310
0001
0010
0100
2000
3001
0010
0200
2300
3002
0023
0230
2300
3000
0001
0010
0100
1000
0001
0000
1000
0010
0100
0010
0001
1000
0100
,
0010
0002
1003
0100
0020
1030
0100
0010
0001
0020
0230
2300
3001
0020
0230
2300
3200
0320
0031
0100
0010
0002
1003
0100
0010
0001
1000
0100
0010
0001
1000
0100
,
0010
0001
1000
0100
0010
0001
0010
0100
1000
0001
0010
0100
1000
0001
0010
0100
1000
0002
0013
0100
1000
0100
0010
0001
1000
0100
0020
0032
1003
0100
0010
0001
,
0010
0100
1000
0002
0023
0130
1000
0001
0010
0100
1000
0002
2003
3002
1003
0002
1003
0001
1000
0100
0010
0100
0010
0100
0010
0100
0020
0230
0310
0001
1000
0001
,
1000
0001
1000
0001
1002
1003
0001
1000
0100
1200
0300
1000
0000
1000
0100
1000
0100
0010
0001
0010
0001
0010
0001
0010
0001
0010
0001
0010
0001
0020
0031
1000
,
0001
1000
0001
1000
0001
1000
0002
1003
0001
2000
3001
2000
3200
2300
3200
2300
3000
0200
1300
0010
0100
0010
0001
0000
0000
0001
0010
0100
1000
0001
1000
0100
,
0010
0001
1000
0100
0010
2000
3002
0023
0130
2000
3002
0023
0230
0300
0002
0003
0010
2000
3100
0020
0032
0013
0200
2300
3001
1000
0100
0010
0002
2003
3200
0310
0002
2003
3000
0100
0010
0001
1000
0001
0200
0310
2000
3001
0010
0100
1000
0001
,
0010
0100
1000
0001
0100
0010
0001
1000
0100
0010
0001
1000
0200
0310
0001
0010
0100
1000
0001
0010
0100
1000
0100
0010
0001
1000
0100
0010
0001
0010
0100
1000
0021
0230
1300
0002
2003
3001
1000
0001
1000
0001
0200
0310
0001
0010
0100
1000
,
0001
1000
0100
0010
0001
0020
0230
2300
3001
0010
0100
1000
0001
0010
0100
1000
0100
0020
0031
1000
0100
0010
0001
0010
0100
2000
3001
1000
0100
0010
0001
2000
3001
0100
0001
1000
0200
0310
1000
0002
0013
0100
1000
0001
1000
0100
0010
0002
1003
0200
0320
0032
1003
0100
0010
0001
0010
0100
1000
0001
0100
1000
0001
0010
,
0100
0000
0000
1000
0100
0000
0001
0000
0010
1000
0000
0000
0001
0000
0000
1000
0100
0000
0002
0000
0010
1003
0000
0000
0001
0000
0000
1000
0100
0000
0001
0000
0010
1000
0000
0000
0001
0000
0000
1000
0100
0000
0001
0000
0010
1000
0000
0000
0002
0000
0000
1003
0100
0000
0002
0000
0010
1003
0000
0000
0001
0000
0000
1000
0100
0000
0001
0000
0010
2000
0000
0000
3002
0000
0000
1003
0100
0000
0001
0000
0010
1000
0000
0000
0001
0000
0000
1000
0100
0000
0001
0000
0010
1000
0000
0000
0001
0000
0000
1000
0100
0000
0001
0000
0010
1000
0000
0000
0002
0000
0000
1003
0100
0000
0001
0000
0010
1000
0000
0000
0001
0000
0000
1000
0100
0000
0001
0000
0010
1000
0000
0000
0001
0000
0000
1000
0100
0000
0001
0000
0010
1000
0000
0000
0001
0000
0000
1000
0100
0000
0002
0000
0010
1003
0000
0000
0002
0000
0000
1003
0100
0000
0001
0000
0010
1000
0000
0000
0001
0000
0000
1000
0100
0000
0001
0000
0010
1000
0000
0000
0001
0000
0000
1000
0100
0000
0001
0000
0010
1000
0000
0000
,
1001
0000
0000
0000
;
